» » Matija Dedić - Handwriting

Matija Dedić - Handwriting mp3 flac download

Genre: Jazz
Performer: Matija Dedić
Title: Handwriting
Style: Fusion
Date of release: 2001
MP3 album size: 1495 mb
FLAC album size: 1624 mb
Digital formats: WAV AU MP4 ADX DTS RA AA

Friends - Matija Dedic. Открывайте новую музыку каждый день. Лента с персональными рекомендациями и музыкальными новинками, радио, подборки на любой вкус, удобное управление своей коллекцией.

Matija Dedic - Dedicated (ears&eyes Records, ee:17-o61).

CD packed in special cardboard box with inlay booklet containing additional song and artist information.

Handwriting is a post-fusion contemporary music album recording by MATIJA DEDIĆ released in 2001 on CD, LP/Vinyl and/or cassette.

Listen to Handwriting now. Listen to Handwriting in full in the this site app. Play on this site.

Start your music shopping from All About Jazz and you'll support us in the process. Learn how. About Matija Dedić. Matija Dedić Ligherian Rhapsody. Dedication by Dan McClenaghan. Matija svira Arsena by Nenad Georgievski. Sentiana by Dan Bilawsky.

Handwriting is the debut LP of the instrumental group Rachel's. It was released in May 1995 on Quarterstick Records. Southbound to Marion" – 3:11. M. Daguerre" – 11:28. Full on Night" – 14:32. Richard Barber – contra bass. Marnie Christensen – violin. Kevin Coultas – drum kit. Christian Frederickson – viola. Mark Greenberg – vibraphone. Rachel Grimes – piano. Gregory King – hand drums.

New album - INFLUENCEs. SIDE A: Intro11 (PRELUDE), Written long Time Ago, Breathe - feat. Judith N & Daniel, 125 (INTERLUDE), Looking for an Answer, Avivo (INTERLUDE). SIDE B: Influence, Just Drive (solo piano), Gimme that Luv - feat. Judith N, Find the Modus, Final Destination, Coda. Born in Zagreb on March 2nd 1973. Matija started playing classic piano at the age of five. After he finished Music high school Vatroslav Lisinski in 1991. went to Graz to Jazz Academy where he graduated in 1997. Matija Dedić - Porin 2016 Date: 1. 3. Matija Dedić - Ni ti ni ja Date: 1. 2. Visit me on Social Sites. Designed by Etherion.

MATIJA DEDIĆ, jazz pianist and composer, comes from a music family. He completed studies at the Jazz Academy in Graz under Professor Harold Nuewirth before continuing his education under renowned artists such as John Taylor, Harold Galper, Bill Dobbins, and Barry Harris. At the end of the 90s, he founded the Matija Dedić Trio, performing his original music with double bass player Žiga Golob and drummer Krunoslav Levačić. He has performed in nearly all the countries of Europe and in the US, achieving outstanding appearances with jazz musicians and icons such as Boško Petrović, the Black Coffee.

PERFORMER "Matija Dedic" INDEX 01 00:00:00 FILE "03 Sebastian Goes To Cuba. flac" WAVE TRACK 03 AUDIO TITLE "Sebastian Goes To Cuba" PERFORMER "Matija Dedic" INDEX 01 00:00:00 FILE "04 All Of Yo. lac" WAVE TRACK 04 AUDIO TITLE "All Of You" PERFORMER "Matija Dedic" INDEX 01 00:00:00 FILE "05 Free Agent. flac" WAVE TRACK 05 AUDIO. At the end of the year 2004. Dallas Records released a brand new Matija Dedic record titled Tempera. The album is brilliant compilation of well known songs from the biggest male pop star in Croatia – Gibonni, this time reconstructed and covered in a jazz way by Matija himself. Tempera once again showed all of Matija's talents and proved him as Croatian lead and busiest jazz pianist. he recorded his latest record named Drugi pogled in which he covered his father's most popular compositions.

Tracklist Hide Credits

1 End Of May
Featuring – Darko Jurković - Charlie*
5:46
2 Amor En Paz
Featuring – Quartet Sensitive
4:40
3 First Cat
Featuring – Boilers, DJ Dus*Remix – DJ Dus*
4:45
4 The Shadow Of Your Smile
Featuring – Black Coffee , Dražen Bogdanović, Oliver Dragojević
5:18
5 My Funny Valentine
Featuring – Boško Petrović, Gaby Novak*
6:43
6 Sve Te Vodilo K Meni
Featuring – Arsen Dedić
2:43
7 Jeden Pot
Featuring – Lidija Bajuk
4:28
8 So What
Featuring – Dalmatia Reunion
6:20
9 Blue In Yellow
Featuring – Joe Pandur, Marko Križan
4:33
10 Gorgondola
Featuring – Matija Dedić TrioRemix – DJ Dus*
4:50
11 Sama U Dvoje
Featuring – Ivana Husar (Divas)*
3:20
12 Le Mani Tue
Featuring – Maja Vučić (Divas)*, Milo Stavros, Saša Nestorović
5:01

Companies, etc.

  • Phonographic Copyright (p) – Cantus
  • Recorded At – Morris Studio, Zagreb
  • Recorded At – Studio Mrduljaš

Credits

  • Design – Darko Sever
  • Engineer – Miro Vidović (tracks: 3, 5 to 12), Robert Funčić (tracks: 1, 2), Tomislav Mrduljaš (tracks: 4)
  • Photography By – Damil Kalogjera, Marko Gracin, Pavao Scotti
  • Producer – Matija Dedić, Miro Vidović

Notes

CD packed in special cardboard box with inlay booklet containing additional song and artist information.

Barcode and Other Identifiers

  • Barcode: 3859889849586
  • Rights Society: HDS / BIEM
Related to Matija Dedić - Handwriting
Arsen Dedić - Stara Cura album mp3 flac
Arsen Dedić - Stara Cura mp3 flac download
Divas - Bon Appetit album mp3 flac
Divas  - Bon Appetit mp3 flac download
Arsen Dedić - Kino Sloboda album mp3 flac
Arsen Dedić - Kino Sloboda mp3 flac download
Arsen Dedić - Tihi Obrt album mp3 flac
Arsen Dedić - Tihi Obrt mp3 flac download
Gabi Novak I Arsen Dedić - Gabi & Arsen album mp3 flac
Gabi Novak I Arsen Dedić - Gabi & Arsen mp3 flac download
Arsen Dedić - Arsen Dedić 2. album mp3 flac
Arsen Dedić - Arsen Dedić 2. mp3 flac download
Zdenko Runjić - Gold Collection album mp3 flac
Zdenko Runjić - Gold Collection mp3 flac download
Matija Dedić - Life Of Flowers album mp3 flac
Matija Dedić - Life Of Flowers mp3 flac download
Boško Petrović & Boilers - St. Miles Infirmary (Live At B.P. Club) album mp3 flac
Boško Petrović & Boilers - St. Miles Infirmary (Live At B.P. Club) mp3 flac download